Skip to main content

Wayne Horvitz Live at Knitting Factory on 1999-04-20

Audio Preview

etree
Wayne Horvitz Live at Knitting Factory on 1999-04-20




300
April 20, 1999
Knitting Factory Mainspace
New York City, NY

Wayne Horvitz - keyboards
Briggan Krauss - saxophone
Kenny Wolleson - drums

*** THIS IS A 16-BIT FILESET INTENDED FOR AUDIO CD ***

SOURCE: schoeps cmc5-mk4 (cardioid, 2nd row center) > sonosax SX-M2 > Sony D3 > Zefiro Acoustics ZA2 (dos capture) > Sound Forge (tracking, fades) > Goldenhawk CDR-win > audio CD
PROCESSING: Sony Optiarc 7240S DVD-RW > Exact Audio Copy V1.0 beta 2 (logs included) > soundforge 10.0 (tracking, fades) > flac 1.2.1b

DISK ONE

01
02
03


Collection WayneHorvitz
Band/Artist Wayne Horvitz
Venue Knitting Factory
Location New York City NY

Source schoeps cmc5-mk4 (cardioid, 2nd row center) > sonosax SX-M2 > Sony D3
Lineage Zefiro Acoustics ZA2 (dos capture) > Sound Forge (tracking, fades) > Goldenhawk CDR-win > audio CD > Sony Optiarc 7240S DVD-RW > Exact Audio Copy V1.0 beta 2 (logs included) > soundforge 10.0 (tracking, fades) > flac 1.2.1b
Taped by Peter W. King
Transferred by Peter W. King

Notes

length expanded size cdr WAVE problems fmt ratio filename
33:50.21 358141436 B --- -- ---xx flac 0.4783 300waynehorvitz1999-04-20_mk4_d1t01.flac
12:18.29 130251452 B --- -- ---xx flac 0.4388 300waynehorvitz1999-04-20_mk4_d1t02.flac
11:58.00 126655244 B --- -- ---xx flac 0.3888 300waynehorvitz1999-04-20_mk4_d1t03.flac
58:06.50 615048132 B 0.4515 (3 files)

comment
Reviews

There are no reviews yet. Be the first one to write a review.
SIMILAR ITEMS (based on metadata)
eye
Title
Date Archived
Creator
Wayne Horvitz
by Wayne Horvitz
etree
eye 122
favorite 0
comment 0
Source: FOB: Sennheiser MKE-2 > Sony D6 (analog master)
Wayne Horvitz
by Wayne Horvitz
etree
eye 138
favorite 0
comment 0
Source: mk4 NOS onstage center, 2' high > kc5 > cmc6 > SD722 (24/96)
Wayne Horvitz
by Wayne Horvitz
etree
eye 60
favorite 0
comment 0
Source: FOB (at pole): Neumann TLM 103 > Lunatec V2 > P1
Wayne Horvitz
by Wayne Horvitz
etree
eye 173
favorite 0
comment 0
Source: Set 1: AT822 + SBD > Mackie 1202 > SBM-1 // Set 2: Nakamichi 300 + SBD > Mackie 1202 > SBM-1
Wayne Horvitz
by Wayne Horvitz
etree
eye 55
favorite 1
comment 0
Source: Sennheiser ME66 + Earthworks SR71 > P1 & Earthworks SR71 > P1
Wayne Horvitz
by Wayne Horvitz
etree
eye 147
favorite 0
comment 0
Source: Nak 300 (on stage) + mono SBD > Mackie 1202 > Sony R500
Wayne Horvitz
by Wayne Horvitz
etree
eye 31
favorite 0
comment 0
Source: AKG 414TLII (on-stage, split about 4', set on omni) > Lunatec V3 > VX Pocket @ 24 bit/48 Khz > Sony Vaio SR33 > Wavelab > Flac
Wayne Horvitz
by Wayne Horvitz
etree
eye 134
favorite 0
comment 0
Source: FOB: Sennheiser MKE-2 > M1
Wayne Horvitz
by Wayne Horvitz
etree
eye 76
favorite 0
comment 0
Source: AKG 414/TLII (on cardioid) on stage > DMic20 @ 48khz
Wayne Horvitz
by Wayne Horvitz
etree
eye 82
favorite 0
comment 0
Source: AKG 414TLII (on-stage, set on cardioid, split 10') + Mono Soundboard > Spirit Folio Mixer > DMIC-20 > DAT